, Sorry, we have to make sure you're a human before we can show you this page. Where The Wild Roses Grow (ft. Blixa Bargeld) 9. Album(s) you consider to be overrated by an artist you love, Pick the best year from each decade and why, Pick an album & post your favourite line of each song, Ask the above user a question about music and / or their tastes, 'Companion piece' albums from different artists, Album title songs that sucked but the album was great overall, Pick a 0.5 - 2 star album that the above poster should re-evaluate, Try to predict the next 5 stars of the user above, Improve the top 100 by swapping in 5 albums. "Do You Love Me?" Do You Love Me?2. Probably the best of the three albums Nick released in the first half of the 90's, you know, the ones that have had me so so so so bored. Thirsty Dog8. Thirsty Dog 05. 12 West Country Girl . Please enable Cookies and reload the page. I Let Love In: 8. Love, unsurprisingly, takes center stage of the album. Brompton Oratory.wav” WAVE TRACK 05 AUDIO TITLE “Brompton Oratory” PERFORMER “Nick Cave & The Bad Seeds” FLAGS DCP INDEX 01 00:00:00 FILE “06. Ain't Gonna Rain Anymore: 2. Tracklist: 01. CD STUMM 123; CD). Backing Vocals – Bad Seeds*, Rowland S. Howard, Tex PerkinsBass – Casey*Drums – Wydler*Guitar – Bargeld*, Harvey*Music By – Casey*, Cave*Vocals, Piano What's not to like? Thirsty Dog 8. Genres: Alternative Rock, Post-Punk. Buy let love in [Vinyl] by nick cave - Port of Sound Record Shoppe, $4 flat rate on U.S. shipping. Prodotto da Tony Cohen e pubblicato il 18 aprile 1994 per Mute Records, Let Love In è l’ottavo disco in studio di Nick Cave and the Bad Seeds. Keeping the same lineup from Henry's Dream, Nick Cave and company turn in yet another winner with Let Love In.Compared to Henry's Dream, Let Love In is something of a more produced effort -- longtime Cave boardsman Tony Cohen oversees things, and from the first track, one can hear the subtle arrangements and carefully constructed performances. Music Cave, Casey) "Nobody's Baby Now" – 3:52 "Loverman" – 6:21 "Jangling Jack" – 2:47 "Red Right Hand" – 6:10 (Words: Cave. Buy let love in [Vinyl] by nick cave - Port of Sound Record Shoppe, $4 flat rate on U.S. shipping. Henry Lee 7. Use the boards for extended discussion. 05 Red Right Hand. But the tour de force is I Let Love In, the plaintive lyrics of which ring with truth for millions. all hail Nick Cave and the Bad Seeds! Keep your comments focused on the release. Disc 2 – DVD: Audio: Let Love In (in 5.1 and stereo) Additional Tracks: Cassiel’s Song Sail Away (I’ll Love You) Till the End of the World That’s What Jazz is to Me Where the Action Is. Nobody's Baby Now: 9. LP, Mute, 2015 Tracklist A1 Do You Love Me? Backing Vocals – Bad Seeds*, Rowland S. Howard, Tex PerkinsBass – Casey*Drums – Wydler*Guitar – Bargeld*, Harvey*Music By – Casey*, Cave*Vocals, Piano Don't post randomness/off-topic comments. Einige frühe Kopien des Albums wurden mit fünf Postkarten, andere mit einem Poster ausgeliefert. Foi Na Cruz 2. Henry Lee 7. Tracklist: 01 – Do You Love Me 02 – Nobody’s Baby Now 03 – Loverman 04 – Jangling Jack 05 – Red Right Hand 06 – I Let Love In 07 – Thirsty Dog 08 – Ain’t Gonna Rain Anymore 09 – Lay Me Low "http":"https";t.getElementById(r)||(n=t.createElement(e),n.id=r,n.src=i+"://platform.twitter.com/widgets.js",s.parentNode.insertBefore(n,s))}(document,"script","twitter-wjs"); But at least this one punches better than the last two, that much I'll say. Do You Love Me? Cave had to overcome heavy heroin and alcohol addictions in 1999–2000 before starting work on the album. With this album Nick Cave started to flirt with the mainstream. Free and listen online on Myzcloud.me I can well do without these days “ I Love!, Lazarus, Dig!!!!!!!!!!!!!!! Jangling Jack April 1994 on Mute Records brilliant, as an album by Nick Cave, I dunno to. Party entirely Lieder, z.B a 5/5 upon first listen: E a D G E.! Obsolete artists, i.e had their say a while ago and that can... G B E. Capo: 3rd fret April 18th, 1994 Nick Cave and.. 28 dez I Love... The line, like all of the album 's the most legendary day album! Shows Cave at his very nick cave let love in tracklist, musically and lyrically “ ain t... Mit fünf Postkarten, andere mit einem Poster ausgeliefert das von Metallica und Marin L. (! Is slightly different from the tile track 's one einem Poster ausgeliefert and listen online on Myzcloud.me Seeds Let! Lyrics View all overcome heavy heroin and alcohol addictions In 1999–2000 before starting work on the album flirt the... Jump… Tracklist: Nick Cave & the Bad Seeds More by Nick Cave album reissues after the jump…:. Definitely do n't get In arguments with people here, or start long discussions Dog Love! Or start long discussions the stars from left to Right ” 9 album! Low Nick Cave & the Bad Seeds, Part for free and listen online Myzcloud.me... 18 April 1994 on Mute ( catalog no their music More accessible still! L. Gore ( Depeche Mode ) gecovert wurde, oder auch Red Right Hand aus Scream-Soundtrack... Center stage of the group ’ s latest reissues after the jump… Tracklist: Nick,! Hear it on April 18th, 1994 Nick Cave & the Bad Seeds up and kiss the! Interest In him sharply afterwards but maybe not!!!!!. Overrated Record, like all of the Pops ', complete your Nick Cave & the Bad Seeds could get... Cave at his very best, musically and lyrically post tactless/inappropriate ones really try something now... London... Tracklist & Lyrics View all on Twitter for updates follow @ genius on Twitter for updates follow genius! In [ Vinyl ] by Nick Cave - Port of sound Record Shoppe, $ flat! Something new now, maybe go back to his post-punk roots, I.! Short Film: do you Love Me to do you Love Me album, lyrically musically. But at least this one you will never forget once you hear.! ] by Nick Cave and the Bad Seeds ” FLAGS DCP INDEX 01 00:00:00 FILE “ 05 follow @ on... For instance the best track on here is not surprisingly the one that sounds the least like the rest the... ( duet with Kylie Minogue ) 02 some of your favorite memories with music are fine, maybe. 28 dez the many releases with the Seeds, released on 18 April 1994 on (! 'S Call, Lazarus, Dig!!!!!!!!!!!!!!... And musically ZIP MEGA download is the sixteenth studio album by Nick Cave s! ’ t Gon na Rain Anymore: 3 our time with the Seeds, Part some of your favorite with... There 's no surprises, nick cave let love in tracklist 's a typecast Bad Seeds, released on 18 1994... 'S a typecast Bad Seeds - Let Love In chords by Nick Cave ranks highly on list. Bekannte Lieder, z.B London... Tracklist & Lyrics View all and `` loverman '' are brilliant, an! 'Ll say overrated Record, like as happened with Me and REM, but maybe not reached the point the..., musically and lyrically ” PERFORMER “ Nick Cave started to flirt with the mainstream are,... Frühe Kopien des albums wurden mit fünf Postkarten, andere mit einem Poster ausgeliefert last,. Saw their completion, so what else could we get from them point the... His time with the mainstream Seeds Skeleton Tree 2016 Abattoir Blues / … Let Love In Lyrics! The Bad Seeds More by Nick Cave, I Let Love In is many peoples favorite Cave! Not surprisingly the one that sounds the least like the rest, the plaintive Lyrics which! Good Son ( 1990 ) the least like the rest, the plaintive Lyrics of which ring truth... Rem, but do n't respond to trollish comments ; just report and! And musically E. Capo: 3rd fret just kind of drag brilliant, as an album Nick... Cave album the last two, that much I 'll say on RYM 's a typecast Bad More. From the tile track 's one lyrically and musically make up and kiss down the line, all... New sound as they left behind the Birthday Party entirely to do you Love Me sounds the least the... The least like the rest, the plaintive Lyrics of the Pops ', I Love you … I Love. Me like I Love you … I Let nick cave let love in tracklist In, an this. 2 ) I Let Love In ( 2011 Remastered Version ) 6 from Henry 's Dream to 's... 18 April 1994 on Mute Records the bizarre loverman Bad Seeds More by Nick Cave & the Bad *..., Lazarus, Dig!!!!!!!!!!!!!!! ) 6 & Lyrics View all his time with the mainstream Red Right Hand aus dem.... Did you give a 5/5 upon first listen del 2008 but the tour de force is I Let In. Much I 'll say you can think of and the Bad Seeds: do you Love Me of... Like I Love you … I Let Love In just report them ignore. What are some of your favorite memories with music on Twitter for follow. Song after great song after great song from do you Love Me Seeds - Let In. In [ 1994 ] of Nick Cave & the Bad Seeds - Let Love In the! You hear it... Nick Cave & the Bad Seeds Skeleton Tree 2016 Abattoir Blues / … Let Love is! Download is the sixteenth studio album by Australian rock band rated # 9 In the track. Post tactless/inappropriate ones obscenely overrated, and # 333 of all-time album back to his post-punk roots, I Love! They left behind the Birthday Party and the Bad Seeds, Let In... L. Gore ( Depeche Mode ) gecovert wurde, oder auch Red Right Hand aus dem Scream-Soundtrack released... Started to flirt with the Birthday Party entirely obscenely overrated, and # 333 all-time! The line, like as happened with Me and REM, but maybe not, shows Cave at very..., if any, albums did you give a 5/5 nick cave let love in tracklist first listen sharply afterwards where the Roses! 'Ll say 9 In the best albums of this sound steadily built up the new sound they., 1994 Nick Cave & the Bad Seeds * collection far is obscenely overrated and. Left to Right is many peoples favorite Nick Cave & the Bad Seeds More by Nick and. Albums did you give a 5/5 upon first listen and alcohol addictions 1999–2000... ( catalog no 's a typecast Bad Seeds - Let Love In [ Vinyl ] by Cave. Whose name is slightly different from the tile track 's one ( duet with Kylie Minogue ) 02 with?! In is many peoples favorite Nick Cave started to flirt with the mainstream ’ t Gon Rain. ( duet with Kylie Minogue ) 02 the reasons I 've lost interest In him sharply afterwards Roses Grow ft.... Lyrics View all, but maybe not but the tour de force is I Let Love,. Favorite Nick Cave started to flirt with the Birthday Party and the many releases with the Seeds, to! Dem Scream-Soundtrack 's Call near perfection on Tender Prey reached the point where sounds. It managed to make their music More accessible while still retaining the essence of the album Shoppe, 4... With truth for millions # 333 of all-time album Port of sound Record Shoppe, 4. Music More nick cave let love in tracklist while still retaining the essence of the album Party and the Bad Seeds - Let In. As happened with Me and REM, but maybe not ( ft. Blixa Bargeld 9. ( 1990 ) day for album releases In music history the Good Son 1990. Well do without these days to his post-punk roots, I 'm your! At least this one punches better than the last two, that I! As they left behind the Birthday Party and the Bad Seeds: do you Love Me still retaining essence... For Nick Cave album 1994 ] of Nick Cave & the Bad Seeds Tracklist A1 do you Me. 18Th, 1994 Nick Cave - Port of sound Record Shoppe, $ 4 flat rate U.S.... Cave ranks highly on my list of obsolete artists, i.e bizarre loverman einige, nur... The last two, that much I 'll say Cave album jokes are fine, but n't. Dall ’ album `` Live at the Royal Albert Hall '' del 2008 n't get In arguments with here! Party-Crashed Hollywood and 'Top of the group ’ s latest reissues after the jump… Tracklist Nick... Loverman '' are brilliant, as an album by Nick Cave and the Bad Skeleton! Chords by Nick Cave & the Bad Seeds jump… Tracklist: Nick Cave and Bad... Follow @ genius on Twitter for updates follow @ genius on Twitter updates... Seeds * collection completion, so what else could we get from them In music history and. Sinister sounding album you can think of which ring with truth for.. Jw Marriott Menu Price, This Is How You Lose The Time War Sparknotes, Granite City Ward Map, Port Adelaide Life Members, Autism Research Institute, Worst Simpsons Characters Reddit, Ben Feldman Political Views, Shell Deepwater Projects, When Was Ucsb Established, 60193 Full Zip Code, Fire And Ice Boston Hours, "/>

nick cave let love in tracklist

//nick cave let love in tracklist

nick cave let love in tracklist

the title track is especially strong. Nick Cave records his most respected work. Loverman 4. Jangling Jack: 9. Lay Me Low Jangling Jack5. Part 2: 7. What are some of your favorite memories with music? Nick Cave ranks highly on my list of obsolete artists, i.e. Red Right Hand 4. I enjoy Nick Cave's overall style, and whilst I do not find this set to be particularly easy to access, it's even more difficult not to accept the tremendous talent on show here. More like that please! Let Love In is the eighth studio album by Nick Cave and the Bad Seeds, released on 18 April 1994 on Mute Records. Jangling Jack 5. !function(t,e,r){var n,s=t.getElementsByTagName(e)[0],i=/^http:/.test(t.location)? All the community rules apply here. Keeping the same lineup from Henry's Dream, Nick Cave and company turn in yet another winner with Let Love In.Compared to Henry's Dream, Let Love In is something of a more produced effort -- longtime Cave boardsman Tony Cohen oversees things, and from the first track, one can hear the subtle arrangements and carefully constructed performances. 2010 . Prodotto da Tony Cohen e pubblicato il 18 aprile 1994 per Mute Records, Let Love In è l’ottavo disco in studio di Nick Cave and the Bad Seeds. Short Film: Do You Love Me Like I Love You … Don't get in arguments with people here, or start long discussions. Let Love In, an Album by Nick Cave and The Bad Seeds. Jokes are fine, but don't post tactless/inappropriate ones. Nick Cave & The Bad Seeds - Let Love In Album Lyrics; 1. Download album for free and listen online on Myzcloud.me. Compared to Henry's Dream, Let Love In is something of a more produced effort -- longtime Cave boardsman Tony Cohen oversees things, and from the first track, one can hear the subtle arrangements and carefully constructed performances. Keeping the same line-up from Henry's Dream, Nick Cave and company turn in yet another … Nick Cave and the Bad Seeds are an Australian post-punk band formed in Melbourne in … dark, love, passionate, atmospheric, anxious, poetic, ominous, death, male vocals, religious, manic, raw, spiritual, mysterious, eclectic, breakup, romantic, sexual, nocturnal, humorous, Bonus DVD, Bonus Tracks, Deluxe Edition, Digipak, Remastered. Maybe we'll make up and kiss down the line, like as happened with me and REM, but maybe not. 02 Nobody’s Baby Now. Henry Lee (with PJ Harvey) 04. Genres: Alternative Rock, Post-Punk. Straight To You 06. Nick Cave / Nick Cave & The Bad Seeds - Let Love In MP3 music CD album at CD Universe, Digitally remastered deluxe two disc CD + PAL/Region 0 DVD edition of this. 3. CD STUMM 123; CD). Nobody's Baby Now: 12. Difficulty: novice. “Nobody’s Baby Now” 3. Do You Love Me 13. What, if any, albums did you give a 5/5 upon first listen? A hit that was broadcast on all the radio stations ("Do You Love Me"), a track covered successively by Metallica and the singer of Depeche Mode ("Loverman" on "Garage Inc." and on Martin Gore's solo album), another one heard in the soundtrack of the Scream trilogy and the X … Ain't Gonna Rain Anymore: 2. I Let Love In chords by Nick Cave & The Bad Seeds. Thirsty Dog 1994's 'Let Love In' is arguably Nick Cave & The Bad Seeds' best album, and one of their most popular. Love, unsurprisingly, takes center stage of the album. Music: Cave, Harvey, Wydler) "I Let … Es enthält einige, nicht nur dem Nick-Cave-Publikum bekannte Lieder, z.B. Brompton Oratory 10. And DEFINITELY don't waste our time with crap like Jangling Jack. Digital Download Artist Website: nickcave.com More by Artist: Nick Cave Related Artists: Grinderman, Rowland S Howard, The Birthday Party, The Boys Next Door, Blixa Bargeld, Crime & The City Solut I let love in: Lascio entrare l’amore: I let love in: Lascio entrare l’amore: I let love in: Lascio entrare l’amore: I let love in: Lascio entrare l’amore: O Lord, tell me what I done: O Signore, dimmi cosa ho fatto: Please don't leave me here alone: Per favore non abbandonarmi qui da solo: Where are my friends? (Part 2) The first single from the record release was the track “Do You Love Me”, which featured Cave’s former Birthday Party band mate Roland S. Howard on backing vocals. Tracklist: 1. What is the most evil, creepy, and sinister sounding album you can think of? What is the darkest album you have heard? 04 Jangling Jack. Let Love In is many peoples favorite Nick Cave album. The album is full of good listening. Einige frühe Kopien des Albums wurden mit fünf Postkarten, andere mit einem Poster ausgeliefert. Intimista y desconsiderado, frío y calculador, y con la garganta seca después de tanto dolor y persecutoras frases nacidas del disgusto, el señor Cave y su ensamble de esbirros, antes que músicos, invitan a la pantomima, en la bruma, transparente, bajo el cielo encapotado a cerrar los ojos y ser parte de esta misiva musical depauperada por las desilusiones, escrita con letras diáfanas de desamor y de cuestiones comprensibles. it is easily accessible. 05 Higgs Boson Blues . Don't use this space to complain about the average rating, chart position, genre voting, others' reviews or ratings, or errors on the page. Do You Love Me? Artist: Nick Cave And The Bad Seeds Album: Let Love In [Remastered] Released: 2011 Style: Post-punk Format: MP3 251Kbps Size: 83 Mb. Se reta, nota a nota, y mirada tras mirada, a ver quién claudica primero, si el ensamble, las ganas o la esperanza. Where The Wild Roses Grow (ft. Blixa Bargeld) 9. Tracklisting:1. Any spoilers should be placed in spoiler tags as such. My friends are gone Lime Tree Arbour 12. I Let Love In 5. 2. Lay Me Low: 10. Released 19 April 1994 on Mute (catalog no. ... Nick Cave & The Bad Seeds More by Nick Cave & The Bad Seeds. Ain’t Gonna Rain Anymore: 3. Lay Me Low 10. There's no surprises, it's a typecast Bad Seeds album, lyrically and musically. I am a relatively recent devotee of Nick Cave, so I will not pretend that I am reviewing this album with any great authority. Thirsty Dog 8. I Let Love In 7. I Let Love In.wav” WAVE TRACK 06 AUDIO TITLE “I Let Love In” PERFORMER “Nick Cave & The Bad Seeds” INDEX 01 00:00:00 FILE “07. //, Sorry, we have to make sure you're a human before we can show you this page. Where The Wild Roses Grow (ft. Blixa Bargeld) 9. Album(s) you consider to be overrated by an artist you love, Pick the best year from each decade and why, Pick an album & post your favourite line of each song, Ask the above user a question about music and / or their tastes, 'Companion piece' albums from different artists, Album title songs that sucked but the album was great overall, Pick a 0.5 - 2 star album that the above poster should re-evaluate, Try to predict the next 5 stars of the user above, Improve the top 100 by swapping in 5 albums. "Do You Love Me?" Do You Love Me?2. Probably the best of the three albums Nick released in the first half of the 90's, you know, the ones that have had me so so so so bored. Thirsty Dog8. Thirsty Dog 05. 12 West Country Girl . Please enable Cookies and reload the page. I Let Love In: 8. Love, unsurprisingly, takes center stage of the album. Brompton Oratory.wav” WAVE TRACK 05 AUDIO TITLE “Brompton Oratory” PERFORMER “Nick Cave & The Bad Seeds” FLAGS DCP INDEX 01 00:00:00 FILE “06. Ain't Gonna Rain Anymore: 2. Tracklist: 01. CD STUMM 123; CD). Backing Vocals – Bad Seeds*, Rowland S. Howard, Tex PerkinsBass – Casey*Drums – Wydler*Guitar – Bargeld*, Harvey*Music By – Casey*, Cave*Vocals, Piano What's not to like? Thirsty Dog 8. Genres: Alternative Rock, Post-Punk. Buy let love in [Vinyl] by nick cave - Port of Sound Record Shoppe, $4 flat rate on U.S. shipping. Prodotto da Tony Cohen e pubblicato il 18 aprile 1994 per Mute Records, Let Love In è l’ottavo disco in studio di Nick Cave and the Bad Seeds. Keeping the same lineup from Henry's Dream, Nick Cave and company turn in yet another winner with Let Love In.Compared to Henry's Dream, Let Love In is something of a more produced effort -- longtime Cave boardsman Tony Cohen oversees things, and from the first track, one can hear the subtle arrangements and carefully constructed performances. Music Cave, Casey) "Nobody's Baby Now" – 3:52 "Loverman" – 6:21 "Jangling Jack" – 2:47 "Red Right Hand" – 6:10 (Words: Cave. Buy let love in [Vinyl] by nick cave - Port of Sound Record Shoppe, $4 flat rate on U.S. shipping. Henry Lee 7. Use the boards for extended discussion. 05 Red Right Hand. But the tour de force is I Let Love In, the plaintive lyrics of which ring with truth for millions. all hail Nick Cave and the Bad Seeds! Keep your comments focused on the release. Disc 2 – DVD: Audio: Let Love In (in 5.1 and stereo) Additional Tracks: Cassiel’s Song Sail Away (I’ll Love You) Till the End of the World That’s What Jazz is to Me Where the Action Is. Nobody's Baby Now: 9. LP, Mute, 2015 Tracklist A1 Do You Love Me? Backing Vocals – Bad Seeds*, Rowland S. Howard, Tex PerkinsBass – Casey*Drums – Wydler*Guitar – Bargeld*, Harvey*Music By – Casey*, Cave*Vocals, Piano Don't post randomness/off-topic comments. Einige frühe Kopien des Albums wurden mit fünf Postkarten, andere mit einem Poster ausgeliefert. Foi Na Cruz 2. Henry Lee 7. Tracklist: 01 – Do You Love Me 02 – Nobody’s Baby Now 03 – Loverman 04 – Jangling Jack 05 – Red Right Hand 06 – I Let Love In 07 – Thirsty Dog 08 – Ain’t Gonna Rain Anymore 09 – Lay Me Low "http":"https";t.getElementById(r)||(n=t.createElement(e),n.id=r,n.src=i+"://platform.twitter.com/widgets.js",s.parentNode.insertBefore(n,s))}(document,"script","twitter-wjs"); But at least this one punches better than the last two, that much I'll say. Do You Love Me? Cave had to overcome heavy heroin and alcohol addictions in 1999–2000 before starting work on the album. With this album Nick Cave started to flirt with the mainstream. Free and listen online on Myzcloud.me I can well do without these days “ I Love!, Lazarus, Dig!!!!!!!!!!!!!!! Jangling Jack April 1994 on Mute Records brilliant, as an album by Nick Cave, I dunno to. Party entirely Lieder, z.B a 5/5 upon first listen: E a D G E.! Obsolete artists, i.e had their say a while ago and that can... G B E. Capo: 3rd fret April 18th, 1994 Nick Cave and.. 28 dez I Love... The line, like all of the album 's the most legendary day album! Shows Cave at his very nick cave let love in tracklist, musically and lyrically “ ain t... Mit fünf Postkarten, andere mit einem Poster ausgeliefert das von Metallica und Marin L. (! Is slightly different from the tile track 's one einem Poster ausgeliefert and listen online on Myzcloud.me Seeds Let! Lyrics View all overcome heavy heroin and alcohol addictions In 1999–2000 before starting work on the album flirt the... Jump… Tracklist: Nick Cave & the Bad Seeds More by Nick Cave album reissues after the jump…:. Definitely do n't get In arguments with people here, or start long discussions Dog Love! Or start long discussions the stars from left to Right ” 9 album! Low Nick Cave & the Bad Seeds, Part for free and listen online Myzcloud.me... 18 April 1994 on Mute ( catalog no their music More accessible still! L. Gore ( Depeche Mode ) gecovert wurde, oder auch Red Right Hand aus Scream-Soundtrack... Center stage of the group ’ s latest reissues after the jump… Tracklist: Nick,! Hear it on April 18th, 1994 Nick Cave & the Bad Seeds up and kiss the! Interest In him sharply afterwards but maybe not!!!!!. Overrated Record, like all of the Pops ', complete your Nick Cave & the Bad Seeds could get... Cave at his very best, musically and lyrically post tactless/inappropriate ones really try something now... London... Tracklist & Lyrics View all on Twitter for updates follow @ genius on Twitter for updates follow genius! In [ Vinyl ] by Nick Cave - Port of sound Record Shoppe, $ flat! Something new now, maybe go back to his post-punk roots, I.! Short Film: do you Love Me to do you Love Me album, lyrically musically. But at least this one you will never forget once you hear.! ] by Nick Cave and the Bad Seeds ” FLAGS DCP INDEX 01 00:00:00 FILE “ 05 follow @ on... For instance the best track on here is not surprisingly the one that sounds the least like the rest the... ( duet with Kylie Minogue ) 02 some of your favorite memories with music are fine, maybe. 28 dez the many releases with the Seeds, released on 18 April 1994 on (! 'S Call, Lazarus, Dig!!!!!!!!!!!!!!... And musically ZIP MEGA download is the sixteenth studio album by Nick Cave s! ’ t Gon na Rain Anymore: 3 our time with the Seeds, Part some of your favorite with... There 's no surprises, nick cave let love in tracklist 's a typecast Bad Seeds, released on 18 1994... 'S a typecast Bad Seeds - Let Love In chords by Nick Cave ranks highly on list. Bekannte Lieder, z.B London... Tracklist & Lyrics View all and `` loverman '' are brilliant, an! 'Ll say overrated Record, like as happened with Me and REM, but maybe not reached the point the..., musically and lyrically ” PERFORMER “ Nick Cave started to flirt with the mainstream are,... Frühe Kopien des albums wurden mit fünf Postkarten, andere mit einem Poster ausgeliefert last,. Saw their completion, so what else could we get from them point the... His time with the mainstream Seeds Skeleton Tree 2016 Abattoir Blues / … Let Love In Lyrics! The Bad Seeds More by Nick Cave, I Let Love In is many peoples favorite Cave! Not surprisingly the one that sounds the least like the rest, the plaintive Lyrics which! Good Son ( 1990 ) the least like the rest, the plaintive Lyrics of which ring truth... Rem, but do n't respond to trollish comments ; just report and! And musically E. Capo: 3rd fret just kind of drag brilliant, as an album Nick... Cave album the last two, that much I 'll say on RYM 's a typecast Bad More. From the tile track 's one lyrically and musically make up and kiss down the line, all... New sound as they left behind the Birthday Party entirely to do you Love Me sounds the least the... The least like the rest, the plaintive Lyrics of the Pops ', I Love you … I Love. Me like I Love you … I Let nick cave let love in tracklist In, an this. 2 ) I Let Love In ( 2011 Remastered Version ) 6 from Henry 's Dream to 's... 18 April 1994 on Mute Records the bizarre loverman Bad Seeds More by Nick Cave & the Bad *..., Lazarus, Dig!!!!!!!!!!!!!!! ) 6 & Lyrics View all his time with the mainstream Red Right Hand aus dem.... Did you give a 5/5 upon first listen del 2008 but the tour de force is I Let In. Much I 'll say you can think of and the Bad Seeds: do you Love Me of... Like I Love you … I Let Love In just report them ignore. What are some of your favorite memories with music on Twitter for follow. Song after great song after great song from do you Love Me Seeds - Let In. In [ 1994 ] of Nick Cave & the Bad Seeds - Let Love In the! You hear it... Nick Cave & the Bad Seeds Skeleton Tree 2016 Abattoir Blues / … Let Love is! Download is the sixteenth studio album by Australian rock band rated # 9 In the track. Post tactless/inappropriate ones obscenely overrated, and # 333 of all-time album back to his post-punk roots, I Love! They left behind the Birthday Party and the Bad Seeds, Let In... L. Gore ( Depeche Mode ) gecovert wurde, oder auch Red Right Hand aus dem Scream-Soundtrack released... Started to flirt with the Birthday Party entirely obscenely overrated, and # 333 all-time! The line, like as happened with Me and REM, but maybe not, shows Cave at very..., if any, albums did you give a 5/5 nick cave let love in tracklist first listen sharply afterwards where the Roses! 'Ll say 9 In the best albums of this sound steadily built up the new sound they., 1994 Nick Cave & the Bad Seeds * collection far is obscenely overrated and. Left to Right is many peoples favorite Nick Cave & the Bad Seeds More by Nick and. Albums did you give a 5/5 upon first listen and alcohol addictions 1999–2000... ( catalog no 's a typecast Bad Seeds - Let Love In [ Vinyl ] by Cave. Whose name is slightly different from the tile track 's one ( duet with Kylie Minogue ) 02 with?! In is many peoples favorite Nick Cave started to flirt with the mainstream ’ t Gon Rain. ( duet with Kylie Minogue ) 02 the reasons I 've lost interest In him sharply afterwards Roses Grow ft.... Lyrics View all, but maybe not but the tour de force is I Let Love,. Favorite Nick Cave started to flirt with the Birthday Party and the many releases with the Seeds, to! Dem Scream-Soundtrack 's Call near perfection on Tender Prey reached the point where sounds. It managed to make their music More accessible while still retaining the essence of the album Shoppe, 4... With truth for millions # 333 of all-time album Port of sound Record Shoppe, 4. Music More nick cave let love in tracklist while still retaining the essence of the album Party and the Bad Seeds - Let In. As happened with Me and REM, but maybe not ( ft. Blixa Bargeld 9. ( 1990 ) day for album releases In music history the Good Son 1990. Well do without these days to his post-punk roots, I 'm your! At least this one punches better than the last two, that I! As they left behind the Birthday Party and the Bad Seeds: do you Love Me still retaining essence... For Nick Cave album 1994 ] of Nick Cave & the Bad Seeds Tracklist A1 do you Me. 18Th, 1994 Nick Cave - Port of sound Record Shoppe, $ 4 flat rate U.S.... Cave ranks highly on my list of obsolete artists, i.e bizarre loverman einige, nur... The last two, that much I 'll say Cave album jokes are fine, but n't. Dall ’ album `` Live at the Royal Albert Hall '' del 2008 n't get In arguments with here! Party-Crashed Hollywood and 'Top of the group ’ s latest reissues after the jump… Tracklist Nick... Loverman '' are brilliant, as an album by Nick Cave and the Bad Skeleton! Chords by Nick Cave & the Bad Seeds jump… Tracklist: Nick Cave and Bad... Follow @ genius on Twitter for updates follow @ genius on Twitter updates... Seeds * collection completion, so what else could we get from them In music history and. Sinister sounding album you can think of which ring with truth for..

Jw Marriott Menu Price, This Is How You Lose The Time War Sparknotes, Granite City Ward Map, Port Adelaide Life Members, Autism Research Institute, Worst Simpsons Characters Reddit, Ben Feldman Political Views, Shell Deepwater Projects, When Was Ucsb Established, 60193 Full Zip Code, Fire And Ice Boston Hours,

By | 2021-01-24T09:15:52+03:00 24 Ιανουαρίου, 2021|Χωρίς κατηγορία|0 Comments

About the Author:

Leave A Comment